travismk
一代宗师

[更 早] [欧美] [其他] [BD-720P] 不死劫/惊心动魄 Unbreakable.2000.REMASTERED.720p.BluRay.x264-NOKITKAT 7.39GB

-->

帖子完整标题:不死劫/惊心动魄 Unbreakable.2000.REMASTERED.720p.BluRay.x264-NOKITKAT 7.39GB



◎译  名 不死劫/惊心动魄(台)/生死劫
◎片  名 Unbreakable
◎年  代 2000
◎产  地 美国
◎类  别 悬疑 / 惊悚 / 犯罪
◎语  言 英语
◎上映日期 2000-11-22(美国)
◎豆瓣评分 6.8/10 from 20383 users
◎豆瓣链接 https://movie.douban.com/subject/1301711/
◎片  长 106分钟
◎导  演 M·奈特·沙马兰 M. Night Shyamalan
◎编  剧 M·奈特·沙马兰 M. Night Shyamalan
◎主  演 布鲁斯·威利斯 Bruce Willis
      塞缪尔·杰克逊 Samuel L. Jackson
      罗宾·怀特 Robin Wright
      斯宾塞·崔特·克拉克 Spencer Treat Clark
      查莱宁·伍德拉德 Charlayne Woodard
      伊默恩·沃克 Eamonn Walker
      莱斯利·史蒂芬森 Leslie Stefanson
      Elizabeth Lawrence Elizabeth Lawrence
      劳拉·里根 Laura Regan
      蔡斯·凯利 Chance Kelly
      迈克尔·凯利 Michael Kelly
      法尔德斯·巴姆 Firdous Bamji
      詹姆斯·汉迪 James Handy
      理查德·肯索尔 Richard Council
      达米安·杨 Damian Young
      M·奈特·沙马兰 M. Night Shyamalan
      Sasha Neulinger Sasha Neulinger
      尤基·华盛顿 Ukee Washington
      Todd Berry Todd Berry
      茱莉娅·约克斯 Julia Yorks
      约翰·帕特里克·阿梅多利 John Patrick Amedori
      安东尼博斯克 Anthony Bosco
      Chrismandu Chrismandu
      詹妮弗·黑尔 Jennifer Hale
      娜塔莉·霍尔特曼 Natalie Hultman
      Greg Korin Greg Korin
      布莱斯·列侬 Bryce Lenon
      John Martineau John Martineau
      乔伊佩里洛 Joey Perillo
      Mark Poulton Mark Poulton
      大卫罗姆 David C. Roehm Sr.
      Jonathan Sachar Jonathan Sachar
      John B. Mueller John B. Mueller

◎标  签 悬疑 | 美国 | 科幻 | 布鲁斯·威利斯 | 惊悚 | 剧情 | 2000 | BruceWillis

◎简  介

  一场火车对撞的惨剧夺去131名乘客的性命,大卫?杜恩(Bruce Willis 布鲁斯?威利斯 饰)奇迹般地成为这场灾难过后的唯一幸存者,且浑身上下毫发无伤。在他参加遇难者追悼会之后,他在车窗上发现一张神秘便条,写道:“你这一生生过几次病?”
  
  不久,一个名叫伊利亚?普莱斯(Samuel L. Jackson 塞缪尔?杰克逊 饰)的黑人出现在大卫面前。和大卫不同的是,伊利亚天生手脚残废,脆弱不堪。喜爱漫画的伊利亚认定大卫就是书中那种具有超自然能力的超人。懵懂的大卫开始在伊利亚的引导下认识自身的能力……

Video
ID : 1
Format : AVC
Format/Info : Advanced Video Codec
Format profile : [email protected]
Format settings : CABAC / 8 Ref Frames
Format settings, CABAC : Yes
Format settings, Reference frames : 8 frames
Codec ID : V_MPEG4/ISO/AVC
Duration : 1 h 46 min
Bit rate : 9 250 kb/s
Width : 1 280 pixels
Height : 534 pixels
Display aspect ratio : 2.40:1
Frame rate mode : Constant
Frame rate : 23.976 (24000/1001/189150) FPS
Color space : YUV
Chroma subsampling : 4:2:0
Bit depth : 8 bits
Scan type : Progressive
Bits/(Pixel*Frame) : 0.564
Stream size : 6.89 GiB (93%)
Writing library : x264 core 164 r3065 ae03d92
Encoding settings : cabac=1 / ref=8 / deblock=1:-3:-3 / analyse=0x3:0x133 / me=umh / subme=9 / psy=1 / psy_rd=1.10:0.00 / mixed_ref=1 / me_range=32 / chroma_me=1 / trellis=2 / 8x8dct=1 / cqm=0 / deadzone=21,11 / fast_pskip=0 / chroma_qp_offset=-2 / threads=17 / lookahead_threads=1 / sliced_threads=0 / nr=0 / decimate=0 / interlaced=0 / bluray_compat=0 / constrained_intra=0 / bframes=3 / b_pyramid=2 / b_adapt=2 / b_bias=0 / direct=3 / weightb=1 / open_gop=0 / weightp=2 / keyint=250 / keyint_min=23 / scenecut=40 / intra_refresh=0 / rc=crf / mbtree=0 / crf=15.5 / qcomp=0.60 / qpmin=0 / qpmax=69 / qpstep=4 / ip_ratio=1.40 / pb_ratio=1.30 / aq=3:0.70
Default : Yes
Forced : No
Color range : Limited
Matrix coefficients : BT.709

Audio
ID : 2
Format : AC-3
Format/Info : Audio Coding 3
Commercial name : Dolby Digital
Codec ID : A_AC3
Duration : 1 h 46 min
Bit rate mode : Constant
Bit rate : 640 kb/s
Channel(s) : 6 channels
Channel layout : L R C LFE Ls Rs
Sampling rate : 48.0 kHz
Frame rate : 31.250 FPS (1536 SPF)
Compression mode : Lossy
Stream size : 488 MiB (6%)
Title : AC-3 5.1
Language : English
Service kind : Complete Main
Default : Yes
Forced : No

Text #1
ID : 3
Format : PGS
Muxing mode : zlib
Codec ID : S_HDMV/PGS
Codec ID/Info : Picture based subtitle format used on BDs/HD-DVDs
Duration : 1 h 41 min
Bit rate : 27.8 kb/s
Count of elements : 2069
Stream size : 20.2 MiB (0%)
Title : English SDH
Language : English
Default : No
Forced : No

Text #2
ID : 4
Format : PGS
Muxing mode : zlib
Codec ID : S_HDMV/PGS
Codec ID/Info : Picture based subtitle format used on BDs/HD-DVDs
Duration : 1 h 41 min
Bit rate : 25.9 kb/s
Count of elements : 1836
Stream size : 18.8 MiB (0%)
Title : French
Language : French
Default : No
Forced : No

Text #3
ID : 5
Format : PGS
Muxing mode : zlib
Codec ID : S_HDMV/PGS
Codec ID/Info : Picture based subtitle format used on BDs/HD-DVDs
Duration : 1 h 41 min
Bit rate : 24.9 kb/s
Count of elements : 1850
Stream size : 18.2 MiB (0%)
Title : Spanish
Language : Spanish
Default : No
Forced : No

Menu
00:00:00.000 : Chapter 01
00:08:44.149 : Chapter 02
00:09:51.341 : Chapter 03
00:14:57.730 : Chapter 04
00:16:31.616 : Chapter 05
00:20:58.007 : Chapter 06
00:25:05.587 : Chapter 07
00:32:26.736 : Chapter 08
00:34:37.826 : Chapter 09
00:36:29.062 : Chapter 10
00:40:56.371 : Chapter 11
00:43:22.642 : Chapter 12
00:49:59.705 : Chapter 13
00:54:53.707 : Chapter 14
00:56:58.081 : Chapter 15
01:00:00.764 : Chapter 16
01:02:52.060 : Chapter 17
01:04:35.705 : Chapter 18
01:07:37.929 : Chapter 19
01:12:17.500 : Chapter 20
01:13:29.113 : Chapter 21
01:17:33.983 : Chapter 22
01:22:20.352 : Chapter 23
01:31:39.285 : Chapter 24
01:33:14.255 : Chapter 25
01:35:53.748 : Chapter 26
01:37:50.656 : Chapter 27
01:42:16.130 : Chapter 28





1 个附件 售价 大小 下载 时间

Unbreakable.2000.REMASTERED.720p.BluRay.x264-NOKITKAT.torrent 0 金币 19.18K 868 次 1月前

#1楼
发帖时间:2021-09-17 17:21:06   |   回复数:0
游客组