squallzhao
一代宗师

[2020] [欧美] [剧情] [BD-720P] 触礁/岩石上 On.the.Rocks.2020.720p.BluRay.x264.DTS-MT 5.38GB

-->

帖子完整标题:触礁/岩石上 On.the.Rocks.2020.720p.BluRay.x264.DTS-MT 5.38GB



◎译  名 触礁/岩石上
◎片  名 On the Rocks
◎年  代 2020
◎产  地 美国
◎类  别 剧情 / 喜剧 / 冒险
◎语  言 英语
◎上映日期 2020-09-22(纽约电影节) / 2020-10-23(美国)
◎豆瓣评分 6.6/10 from 2744 users
◎豆瓣链接 https://movie.douban.com/subject/30432861/
◎片  长 97分钟
◎导  演 索菲亚·科波拉 Sofia Coppola
◎编  剧 索菲亚·科波拉 Sofia Coppola
◎主  演 比尔·默瑞 Bill Murray
      拉什达·琼斯 Rashida Jones
      马龙·韦恩斯 Marlon Wayans
      珍妮·斯蕾特 Jenny Slate
      杰西卡·亨维克 Jessica Henwick
      芭芭拉·贝恩 Barbara Bain
      纳迪雅·达珍妮 Nadia Dajani
      朱尔斯·威尔科克斯 Jules Willcox
      娜缇娅·蒂恩 Natia Dune
      桃乐丝·麦卡锡 Doris McCarthy
      南希·欧泽力 Nancy Ozelli
      Mike Keller Mike Keller
      华特鲁迪丝·巴克 Waltrudis Buck
      西蒙娜·拉马德里德 Ximena Lamadrid

◎标  签 美国 | 索菲亚·科波拉 | 2020 | 喜剧 | 剧情 | SofiaCoppola | BillMurray | 美国电影

◎简  介

  索菲亚·科波拉将执导新片《触礁》(On the Rocks),比尔·莫瑞、拉什达·琼斯主演,这将是苹果和A24合作的第一部电影,下月开拍。
  
  剧本由科波拉编写,讲述一个年轻妈妈和她有英雄色彩的父亲重新联系,在纽约展开一段冒险。

◎获奖情况

  第78届金球奖 ?(2021)
  电影类最佳男配角(提名) 比尔·默瑞
  
  第71届美国剪辑工会奖 ?(2021)
  音乐/喜剧片最佳剪辑(提名) 莎拉·弗拉克
  
  第26届美国评论家选择电影奖 ?(2021)
  最佳男配角(提名) 比尔·默瑞
  最佳喜剧片(提名)
  
  第25届金卫星奖 ?(2021)
  电影部门最佳喜剧/音乐片(提名)
  电影部门喜剧/音乐片最佳女主角(提名) 拉什达·琼斯
  电影部门最佳男配角(提名) 比尔·默瑞
  
  第33届芝加哥影评人协会奖 ?(2020)
  最佳男配角(提名) 比尔·默瑞
  
  第24届美国在线影评人协会奖 ?(2021)
  最佳男配角(提名) 比尔·默瑞

Video
ID : 1
Format : AVC
Format/Info : Advanced Video Codec
Format profile : [email protected]
Format settings : CABAC / 9 Ref Frames
Format settings, CABAC : Yes
Format settings, Reference frames : 9 frames
Codec ID : V_MPEG4/ISO/AVC
Duration : 1 h 36 min
Bit rate : 6 442 kb/s
Width : 1 280 pixels
Height : 692 pixels
Display aspect ratio : 1.85:1
Frame rate mode : Constant
Frame rate : 23.976 (24000/1001/189150) FPS
Color space : YUV
Chroma subsampling : 4:2:0
Bit depth : 8 bits
Scan type : Progressive
Bits/(Pixel*Frame) : 0.303
Stream size : 4.36 GiB (81%)
Writing library : x264 core 157 r2938 2b00a84 [email protected] Mod
Encoding settings : cabac=1 / ref=9 / deblock=1:-3:-3 / analyse=0x3:0x133 / me=umh / subme=10 / psy=1 / psy_rd=1.05:0.00 / mixed_ref=1 / me_range=32 / chroma_me=1 / trellis=2 / 8x8dct=1 / cqm=0 / deadzone=21,11 / fast_pskip=0 / chroma_qp_offset=-2 / threads=12 / lookahead_threads=2 / sliced_threads=0 / nr=0 / decimate=0 / interlaced=0 / bluray_compat=0 / constrained_intra=0 / bframes=8 / b_pyramid=2 / b_adapt=2 / b_bias=0 / direct=3 / weightb=1 / open_gop=0 / weightp=2 / keyint=250 / keyint_min=24 / scenecut=40 / intra_refresh=0 / rc_lookahead=250 / rc=crf / mbtree=0 / crf=16.8 / qcomp=0.60 / qpmin=0 / qpmax=69 / qpstep=4 / vbv_maxrate=62500 / vbv_bufsize=78125 / crf_max=0.0 / nal_hrd=none / filler=0 / ip_ratio=1.30 / pb_ratio=1.20 / aq=3:0.80
Language : English
Default : Yes
Forced : No
Color range : Limited
Color primaries : BT.709
Matrix coefficients : BT.709

Audio
ID : 2
Format : DTS
Format/Info : Digital Theater Systems
Codec ID : A_DTS
Duration : 1 h 36 min
Bit rate mode : Constant
Bit rate : 1 509 kb/s
Channel(s) : 6 channels
Channel layout : C L R Ls Rs LFE
Sampling rate : 48.0 kHz
Frame rate : 93.750 FPS (512 SPF)
Bit depth : 24 bits
Compression mode : Lossy
Stream size : 1.02 GiB (19%)
Language : English
Default : Yes
Forced : No

Text
ID : 3
Format : UTF-8
Codec ID : S_TEXT/UTF8
Codec ID/Info : UTF-8 Plain Text
Duration : 1 h 29 min
Bit rate : 70 b/s
Count of elements : 1413
Stream size : 46.0 KiB (0%)
Title : SRT
Language : English
Default : Yes
Forced : No

Menu
00:00:00.000 : en:Chapter 01
00:05:39.631 : en:Chapter 02
00:13:43.906 : en:Chapter 03
00:18:19.348 : en:Chapter 04
00:26:25.125 : en:Chapter 05
00:31:55.622 : en:Chapter 06
00:37:44.012 : en:Chapter 07
00:43:19.013 : en:Chapter 08
00:48:05.758 : en:Chapter 09
00:56:44.610 : en:Chapter 10
00:59:28.857 : en:Chapter 11
01:04:44.297 : en:Chapter 12
01:08:22.724 : en:Chapter 13
01:14:19.538 : en:Chapter 14
01:22:09.049 : en:Chapter 15
01:27:49.097 : en:Chapter 16





1 个附件 售价 大小 下载 时间

On.the.Rocks.2020.720p.BluRay.x264.DTS-MT.torrent 0 金币 14.05K 532 次 1月前

#1楼
发帖时间:2021-10-22 16:14:56   |   回复数:0
游客组