fg603603
一代宗师

[2020] [欧美] [惊悚] [BD-1080P] 第13天 Day.13.2020.1080p.BluRay.x264-FREEMAN 5.67GB

-->

帖子完整标题:第13天 Day.13.2020.1080p.BluRay.x264-FREEMAN 5.67GB



◎译  名 第13天
◎片  名 Day 13
◎年  代 2020
◎产  地 美国
◎类  别 惊悚
◎语  言 英语
◎上映日期 2020-08-04(美国)
◎豆瓣评分 /10 from 0 users
◎豆瓣链接 https://movie.douban.com/subject/35138035/
◎主  演 马丁·科夫 Martin Kove
      吉娜维芙·汉内柳斯 Genevieve Hannelius
      达琳·沃格尔 Darlene Vogel
      亚历克斯·马克尼科尔 Alex MacNicoll
      梅里克·墨菲 Meyrick Murphy

◎标  签 惊悚

◎简  介

  17岁的Colton暑假在家里当保母照顾妹妹。对面老房子里搬来新的邻居,住了一位漂亮的女孩Heather。Colton隔着街观察她,喜欢上她,却也同时发现她的养父对她越来越粗暴。Colton怀疑养父是某个邪教撒旦组织的追随者,并且计划要把Heather杀害,Colton只好想尽办法介入,想阻止悲剧发生。Colton挖掘出真相之后才发觉事情比他想像中的还要吓人。

Video
ID : 1
Format : AVC
Format/Info : Advanced Video Codec
Format profile : [email protected]
Format settings : CABAC / 5 Ref Frames
Format settings, CABAC : Yes
Format settings, Reference frames : 5 frames
Codec ID : V_MPEG4/ISO/AVC
Duration : 1 h 31 min
Bit rate : 6 960 kb/s
Width : 1 920 pixels
Height : 816 pixels
Display aspect ratio : 2.35:1
Frame rate mode : Constant
Frame rate : 23.976 (24000/1001/189150) FPS
Color space : YUV
Chroma subsampling : 4:2:0
Bit depth : 8 bits
Scan type : Progressive
Bits/(Pixel*Frame) : 0.185
Stream size : 4.43 GiB (78%)
Writing library : x264 core 164 r3075 66a5bc1
Encoding settings : cabac=1 / ref=5 / deblock=1:-3:-3 / analyse=0x3:0x133 / me=umh / subme=9 / psy=1 / psy_rd=1.00:0.00 / mixed_ref=1 / me_range=16 / chroma_me=1 / trellis=2 / 8x8dct=1 / cqm=0 / deadzone=21,11 / fast_pskip=0 / chroma_qp_offset=-2 / threads=24 / lookahead_threads=2 / sliced_threads=0 / nr=0 / decimate=1 / interlaced=0 / bluray_compat=0 / constrained_intra=0 / bframes=3 / b_pyramid=2 / b_adapt=2 / b_bias=0 / direct=3 / weightb=1 / open_gop=0 / weightp=2 / keyint=250 / keyint_min=23 / scenecut=40 / intra_refresh=0 / rc_lookahead=60 / rc=crf / mbtree=1 / crf=17.0 / qcomp=0.60 / qpmin=0 / qpmax=69 / qpstep=4 / ip_ratio=1.40 / aq=3:1.00
Default : Yes
Forced : No
Color range : Limited
Matrix coefficients : BT.709

Audio
ID : 2
Format : DTS XLL
Format/Info : Digital Theater Systems
Commercial name : DTS-HD Master Audio
Codec ID : A_DTS
Duration : 1 h 31 min
Bit rate mode : Variable
Bit rate : 1 946 kb/s
Channel(s) : 6 channels
Channel layout : C L R Ls Rs LFE
Sampling rate : 48.0 kHz
Frame rate : 93.750 FPS (512 SPF)
Bit depth : 16 bits
Compression mode : Lossless
Stream size : 1.24 GiB (22%)
Language : English
Default : Yes
Forced : No

Text #1
ID : 3
Format : UTF-8
Codec ID : S_TEXT/UTF8
Codec ID/Info : UTF-8 Plain Text
Duration : 1 min 42 s
Bit rate : 3 b/s
Count of elements : 3
Stream size : 45.0 Bytes (0%)
Language : English
Default : Yes
Forced : Yes

Text #2
ID : 4
Format : PGS
Muxing mode : zlib
Codec ID : S_HDMV/PGS
Codec ID/Info : Picture based subtitle format used on BDs/HD-DVDs
Duration : 1 min 42 s
Bit rate : 1 928 b/s
Count of elements : 6
Stream size : 24.1 KiB (0%)
Language : English
Default : No
Forced : No

Text #3
ID : 5
Format : PGS
Muxing mode : zlib
Codec ID : S_HDMV/PGS
Codec ID/Info : Picture based subtitle format used on BDs/HD-DVDs
Duration : 1 h 15 min
Bit rate : 861 b/s
Count of elements : 62
Stream size : 475 KiB (0%)
Language : German
Default : No
Forced : No

Menu
00:00:00.000 : en:00:00:00.000
00:09:40.872 : en:00:09:40.872
00:21:25.910 : en:00:21:25.910
00:32:03.088 : en:00:32:03.088
00:42:35.595 : en:00:42:35.595
00:53:26.829 : en:00:53:26.829
00:59:33.236 : en:00:59:33.236
01:11:48.346 : en:01:11:48.346





1 个附件 售价 大小 下载 时间

Day.13.2020.1080p.BluRay.x264-FREEMAN.torrent 0 金币 14.93K 812 次 1月前

#1楼
发帖时间:2021-10-23 17:44:34   |   回复数:0
游客组