topgood
一派掌门

[2020] [其他] [剧情] [WEB-1080P] 奈莉·拉普:怪物特工 Nelly.Rapp.Monster.Agent.2020.DUBBED.1080p.AMZN.WEBRip.DDP5.1.x264-NO

-->

帖子完整标题:奈莉·拉普:怪物特工 Nelly.Rapp.Monster.Agent.2020.DUBBED.1080p.AMZN.WEBRip.DDP5.1.x264-NOGRP 2.86GB



◎译  名 奈莉·拉普:怪物特工/Nelly Rapp: Monster Agent
◎片  名 Nelly Rapp - Monsteragent
◎年  代 2020
◎产  地 瑞典
◎类  别 剧情 / 家庭 / 儿童
◎语  言 瑞典语
◎上映日期 2020-10-22(哥德堡电影节) / 2020-10-23(瑞典)
◎豆瓣评分 /10 from 0 users
◎豆瓣链接 https://movie.douban.com/subject/34966089/
◎片  长 92分钟
◎导  演 阿曼达·阿道夫松 Amanda Adolfsson
◎主  演 尤汉·雷伯格 Johan Rheborg
      玛丽安娜·莫克 Marianne M?rck
      比约恩·古斯塔夫松 Bj?rn Gustafsson
      戴维·维贝格 David Wiberg
      艾米·黛蒙德 Amy Diamond
      Peter Lorentzon Peter Lorentzon
       Carina S?derman
      利夫·埃德伦德 Leif Edlund

◎标  签 Berlinale71 | 瑞典电影 | 柏林 | 奇幻 | 儿童喜剧 | P-BerlinF新生代单元

◎简  介

  “Our mission is to protect the world from monsters and monsters from the world. But not to decide who is allowed to exist in the world.”
  
  Nelly has her own special way of seeing things. Where others are spooked, she remains unfazed. Monsters in the basement? One more reason to check the place out! No friends? Nelly will cope. Snooping around in Uncle Hannibal’s labyrinthine mansion, Nelly stumbles upon an incredible secret: her family has been keeping the peace between humans, zombies, vampires and other gruesome creatures for decades, as members of an international brigade of monster agents. Nelly wants to hunt monsters too, and proceeds to stir up a fair amount of dust. But what if she has been misled about who is actually responsible for fear and scariness?
  
  In this fantasy film, based on Martin Widmark’s book series of the same name, the pressure to conform is revealed as the true source of horror.

◎获奖情况

  第71届柏林国际电影节 ?(2021)
  新生代儿童单元最佳影片(提名) 阿曼达·阿道夫松

Video
ID : 1
Format : AVC
Format/Info : Advanced Video Codec
Format profile : [email protected]
Format settings : CABAC / 4 Ref Frames
Format settings, CABAC : Yes
Format settings, Reference frames : 4 frames
Codec ID : V_MPEG4/ISO/AVC
Duration : 1 h 31 min
Bit rate : 3 848 kb/s
Width : 1 920 pixels
Height : 816 pixels
Display aspect ratio : 2.35:1
Frame rate mode : Constant
Frame rate : 24.000 FPS
Color space : YUV
Chroma subsampling : 4:2:0
Bit depth : 8 bits
Scan type : Progressive
Bits/(Pixel*Frame) : 0.102
Stream size : 2.45 GiB (86%)
Default : Yes
Forced : No
Color range : Limited
Color primaries : BT.709
Transfer characteristics : BT.709
Matrix coefficients : BT.709

Audio
ID : 2
Format : E-AC-3
Format/Info : Enhanced AC-3
Commercial name : Dolby Digital Plus
Codec ID : A_EAC3
Duration : 1 h 31 min
Bit rate mode : Constant
Bit rate : 640 kb/s
Channel(s) : 6 channels
Channel layout : L R C LFE Ls Rs
Sampling rate : 48.0 kHz
Frame rate : 31.250 FPS (1536 SPF)
Compression mode : Lossy
Stream size : 418 MiB (14%)
Language : English
Service kind : Complete Main
Default : Yes
Forced : No

Text
ID : 3
Format : UTF-8
Codec ID : S_TEXT/UTF8
Codec ID/Info : UTF-8 Plain Text
Duration : 1 h 25 min
Bit rate : 45 b/s
Count of elements : 1077
Stream size : 28.4 KiB (0%)
Language : English
Default : No
Forced : No





1 个附件 售价 大小 下载 时间

Nelly.Rapp.Monster.Agent.2020.DUBBED.1080p.AMZN.WEBRip.DDP5.1.x264-NOGRP.torrent 0 金币 29.28K 819 次 1月前

#1楼
发帖时间:2021-10-25 09:10:46   |   回复数:0
游客组