fg603603
一代宗师

[2020] [其他] [剧情] [BD-1080P] 东方 The.East.2020.1080p.BluRay.x264.DTS-HD.MA.5.1-MT 18.49GB

-->

帖子完整标题:东方 The.East.2020.1080p.BluRay.x264.DTS-HD.MA.5.1-MT 18.49GB



◎译  名 东方
◎片  名 De Oost
◎年  代 2020
◎产  地 荷兰
◎类  别 剧情 / 战争
◎语  言 荷兰语,印尼语
◎上映日期 2020-09-10(荷兰)
◎豆瓣评分 /10 from 0 users
◎豆瓣链接 https://movie.douban.com/subject/34919081/
◎片  长 137分钟
◎导  演 吉姆·泰华图 Jim Taihuttu
◎主  演 马尔万·肯扎里 Marwan Kenzari
      休·史密特 Huub Smit
      马汀·雷克梅尔 Martijn Lakemeier
      科恩·布里尔 Coen Bril
      乔纳斯·斯莫德斯 Jonas Smulders
      戴维·沃斯特斯 David Wristers

◎标  签 战争 | 荷兰 | 欧洲 | 暴力 | 外语片 | 动作 | 3M稀影基地论坛 | 3M稀影基地

◎简  介

  1940年印度尼西亚独立战争中一名荷兰典狱长的故事

Video
ID : 1
Format : AVC
Format/Info : Advanced Video Codec
Format profile : [email protected]
Format settings : CABAC / 4 Ref Frames
Format settings, CABAC : Yes
Format settings, Reference frames : 4 frames
Codec ID : V_MPEG4/ISO/AVC
Duration : 2 h 21 min
Bit rate : 17.0 Mb/s
Width : 1 920 pixels
Height : 1 040 pixels
Display aspect ratio : 1.85:1
Frame rate mode : Constant
Frame rate : 23.976 (24000/1001/189150) FPS
Color space : YUV
Chroma subsampling : 4:2:0
Bit depth : 8 bits
Scan type : Progressive
Bits/(Pixel*Frame) : 0.355
Stream size : 16.8 GiB (91%)
Writing library : x264 core 157 r2938 2b00a84 [email protected] Mod
Encoding settings : cabac=1 / ref=4 / deblock=1:-3:-3 / analyse=0x3:0x133 / me=umh / subme=10 / psy=1 / psy_rd=1.05:0.00 / mixed_ref=1 / me_range=32 / chroma_me=1 / trellis=2 / 8x8dct=1 / cqm=0 / deadzone=21,11 / fast_pskip=0 / chroma_qp_offset=-2 / threads=12 / lookahead_threads=2 / sliced_threads=0 / nr=0 / decimate=0 / interlaced=0 / bluray_compat=0 / constrained_intra=0 / bframes=8 / b_pyramid=2 / b_adapt=2 / b_bias=0 / direct=3 / weightb=1 / open_gop=0 / weightp=2 / keyint=250 / keyint_min=24 / scenecut=40 / intra_refresh=0 / rc_lookahead=250 / rc=crf / mbtree=0 / crf=16.8 / qcomp=0.60 / qpmin=0 / qpmax=69 / qpstep=4 / vbv_maxrate=62500 / vbv_bufsize=78125 / crf_max=0.0 / nal_hrd=none / filler=0 / ip_ratio=1.30 / pb_ratio=1.20 / aq=3:0.80
Language : English
Default : Yes
Forced : No
Color range : Limited
Color primaries : BT.709
Matrix coefficients : BT.709

Audio
ID : 2
Format : DTS XLL
Format/Info : Digital Theater Systems
Commercial name : DTS-HD Master Audio
Codec ID : A_DTS
Duration : 2 h 21 min
Bit rate mode : Variable
Bit rate : 1 722 kb/s
Channel(s) : 6 channels
Channel layout : C L R Ls Rs LFE
Sampling rate : 48.0 kHz
Frame rate : 93.750 FPS (512 SPF)
Bit depth : 16 bits
Compression mode : Lossless
Stream size : 1.70 GiB (9%)
Language : English
Default : Yes
Forced : No

Text #1
ID : 3
Format : UTF-8
Codec ID : S_TEXT/UTF8
Codec ID/Info : UTF-8 Plain Text
Duration : 2 h 16 min
Bit rate : 39 b/s
Count of elements : 1282
Stream size : 39.9 KiB (0%)
Title : SRT
Language : English
Default : Yes
Forced : No

Text #2
ID : 4
Format : PGS
Muxing mode : zlib
Codec ID : S_HDMV/PGS
Codec ID/Info : Picture based subtitle format used on BDs/HD-DVDs
Duration : 2 h 16 min
Bit rate : 45.2 kb/s
Count of elements : 2564
Stream size : 44.2 MiB (0%)
Language : English
Default : No
Forced : No

Menu
00:00:00.000 : en:Chapter 01
00:08:17.789 : en:Chapter 02
00:15:37.937 : en:Chapter 03
00:24:40.479 : en:Chapter 04
00:34:05.043 : en:Chapter 05
00:42:06.524 : en:Chapter 06
00:51:34.091 : en:Chapter 07
00:59:38.575 : en:Chapter 08
01:09:33.169 : en:Chapter 09
01:19:33.769 : en:Chapter 10
01:30:24.419 : en:Chapter 11
01:38:35.910 : en:Chapter 12
01:48:33.507 : en:Chapter 13
01:55:42.936 : en:Chapter 14
02:05:02.495 : en:Chapter 15
02:15:38.339 : en:Chapter 16





1 个附件 售价 大小 下载 时间

The.East.2020.1080p.BluRay.x264.DTS-HD.MA.5.1-MT.torrent 0 金币 23.74K 707 次 1月前

#1楼
发帖时间:2021-10-25 10:46:39   |   回复数:0
游客组