topgood
武林盟主

[更 早] [香港] [剧情] [BD-1080P] 马永贞 The.Boxer.from.Shantung.1972.REMASTERED.1080p.BluRay.x264-USURY 17.23GB

-->

帖子完整标题:马永贞 The.Boxer.from.Shantung.1972.REMASTERED.1080p.BluRay.x264-USURY 17.23GB



◎译  名 马永贞 / Boxer From Shantung
◎片  名 馬永貞
◎年  代 1972
◎产  地 中国香港
◎类  别 剧情 / 动作 / 爱情 / 犯罪
◎语  言 汉语普通话
◎上映日期 1972-02-11
◎IMDb链接 https://www.imdb.com/title/tt0068310/
◎豆瓣评分 7.3/10 (1947人评价)
◎豆瓣链接 https://movie.douban.com/subject/1298171/
◎片  长 94分钟
◎导  演 张彻 Cheh Chang (id:1007232)
      鲍学礼 Hsueh Li Pao (id:1331738)
◎编  剧 张彻 Cheh Chang (id:1007232)
      倪匡 Kuang Ni (id:1275879)
◎演  员 陈观泰 Kuan Tai Chen (id:1028360)
      姜大卫 David Chiang (id:1013705)
      田青 Ching Tien (id:1034555)
      井莉 Li Ching (id:1042129)
      王钟 Chung Wang (id:1003807)
      余袁稳 Yu Yuen Yin (id:1364266)
      戚毅雄 Ngai-Hung Chik (id:1434745)
      罗强 Chiang Lo (id:1364460)
      凌汉 Hon Ling (id:1379557)
      王光裕 Kuang Yu Wang (id:1417075)
      徐虾 Hsia Hsu (id:1330743)
      白妤 Yu Pai (id:1425921)
      黄培基 Pei Chi Huang (id:1350538)
      钱似莺 Tsi-Ang Chin (id:1211064)
      葛萍 Ping Ko (id:1414682)
      杨柏尘 Pak-Chan Yeung (id:1434741)
      徐建华 Chui Kin-Wa (id:1434304)
      龙逸升 Tang Tak-Cheung (id:1432102)
      黄志强 Wong Chi-Keung (id:1431487)
      黄公武 Kung-Wu Huang (id:1417192)
      马兰奴 Mario Milano (id:1430382)
      谷峰 Feng Ku (id:1054239)
      江全 Chuen Chiang (id:1422721)
      李文泰 Wen Tai Li (id:1346070)
      卢慧 Lo Wai (id:1434230)
      黄梅 Wong Mei (id:1434231)
      黎恩 Lai Yan (id:1434232)
      李钊 Chiu Lee (id:1322628)
      黄哈 Ha Huang (id:1374071)
      陈狄克 Ti-ko Chen (id:1316793)
      何柏光 Pak-Kwong Ho (id:1350540)
      姜南 Nan Chiang (id:1347915)
      西瓜刨 Gwa-pau Sai (id:1220481)
      袁信义 Shun-Yee Yuen (id:1301576)
      冯克安 Hark-On Fung (id:1283563)
      任世官 Shi-Kwan Yen (id:1165667)
      袁曼姿 Man-Tzu Yuan (id:1120083)
      沈劳 Lao Shen (id:1110008)
      郑康业 Kang-Yeh Cheng (id:1073735)
      卢苇 Wei Lu (id:1035758)
      陈国权 Kwok Kuen Chan (id:1350543)
      王将 Chiang Wang (id:1328848)
      袁日初 Yat Chor Yuen (id:1316395)
      袁祥仁 Cheung-Yan Yuen (id:1301574)
      袁和平 Woo-ping Yuen (id:1275026)
      张作舟 Chok Chow Cheung (id:1417191)
      王青 Ching Wong (id:1275150)
      冯毅 Fung Ngai (id:1342238)
      金天柱 Tien-Chu Chin (id:1417197)
      林源 Lam Yuen (id:1424224)
      蒋少麟 Shao-Lin Chiang (id:1423764)
      陈濠 Hao Chen (id:1423747)
      张石庵 Shih-Ou Chang (id:1417190)
      梁尚云 Shang-yun Liang (id:1423007)
      曾楚霖 Choh-Lam Tsang (id:1341398)
      朱由高 Yao Ko Chu (id:1360764)
      伍元勳 Ng Yuen-Fan (id:1354924)
      邵仁枚 Runme Shaw (id:1319311)
      陈勋奇 Frankie Chan (id:1280419)
      阮定邦 Yuen Teng-Bong (id:1432953)
      龚幕铎 Mu-To Kung (id:1411075)
      郭廷鸿 Ting Hung Kuo (id:1377612)
      黎沃 Lai Yu (id:1411067)
      曹庄生 Johnson Tsao (id:1377534)
      何介夫 Chieh-Fu Ho (id:1411074)
      黄金巴 Kamber Huang (id:1411073)
      何志强 Godfrey Ho Jeung-Keung (id:1348970)
      吴宇森 John Woo (id:1027853)
      唐佳 Chia Tang (id:1015544)
      刘家荣 Chia Yung Liu (id:1290162)
      刘家良 Kar-Leung Lau (id:1275361)
      陈全 Chuan Chen (id:1326418)
      王永华 Yung-Hua Wang (id:1300416)

◎简  介
  山东小子马永贞(陈观泰)的拳脚功夫虽十分了得,但因属无名小辈,初到十里洋场的旧上海的他也只能凭借过人力气做苦力。因为秉性善良,路遇不平事时马永贞会拔刀相助,令某歌女(井莉)对他暗生好感,也因此得以成为上海滩风流倜傥、武艺高强的黑道“不小人物”谭四(姜大卫)的好兄弟。
因为对谭四成就的羡慕,马永贞决意凭自己的拳脚打出一片天下来,并渐渐如愿以偿。可惜江湖险恶,他没想到地盘逐渐扩大的自己和谭四成了杨老板的眼中钉。不久,他目睹谭四为杨老板所杀,决心为谭四报仇,然而他的仗义和功夫并不能玩转江湖的游戏规则。

Video
ID : 1
Format : AVC
Format/Info : Advanced Video Codec
Format profile : [email protected]
Format settings : CABAC / 5 Ref Frames
Format settings, CABAC : Yes
Format settings, Reference frames : 5 frames
Codec ID : V_MPEG4/ISO/AVC
Duration : 2 h 14 min
Bit rate : 17.0 Mb/s
Width : 1 920 pixels
Height : 816 pixels
Display aspect ratio : 2.35:1
Frame rate mode : Constant
Frame rate : 23.976 (24000/1001/189150) FPS
Color space : YUV
Chroma subsampling : 4:2:0
Bit depth : 8 bits
Scan type : Progressive
Bits/(Pixel*Frame) : 0.452
Stream size : 15.9 GiB (92%)
Writing library : x264 core 164 r3081 19856cc
Encoding settings : cabac=1 / ref=5 / deblock=1:-3:-3 / analyse=0x3:0x133 / me=umh / subme=10 / psy=1 / psy_rd=1.00:0.15 / mixed_ref=1 / me_range=24 / chroma_me=1 / trellis=2 / 8x8dct=1 / cqm=0 / deadzone=21,11 / fast_pskip=1 / chroma_qp_offset=-3 / threads=18 / lookahead_threads=3 / sliced_threads=0 / nr=0 / decimate=1 / interlaced=0 / bluray_compat=0 / constrained_intra=0 / bframes=8 / b_pyramid=2 / b_adapt=2 / b_bias=0 / direct=3 / weightb=1 / open_gop=0 / weightp=2 / keyint=250 / keyint_min=23 / scenecut=40 / intra_refresh=0 / rc_lookahead=60 / rc=crf / mbtree=1 / crf=17.0 / qcomp=0.60 / qpmin=0 / qpmax=69 / qpstep=4 / ip_ratio=1.40 / aq=3:0.50
Language : English
Default : Yes
Forced : No
Color range : Limited
Matrix coefficients : BT.709

Audio #1
ID : 2
Format : FLAC
Format/Info : Free Lossless Audio Codec
Codec ID : A_FLAC
Duration : 2 h 14 min
Bit rate mode : Variable
Bit rate : 634 kb/s
Channel(s) : 1 channel
Channel layout : C
Sampling rate : 48.0 kHz
Frame rate : 11.719 FPS (4096 SPF)
Bit depth : 24 bits
Compression mode : Lossless
Stream size : 610 MiB (3%)
Title : Mandarin
Writing library : libFLAC 1.2.1 (UTC 2007-09-17)
Language : Chinese
Default : Yes
Forced : No

Audio #2
ID : 3
Format : FLAC
Format/Info : Free Lossless Audio Codec
Codec ID : A_FLAC
Duration : 2 h 14 min
Bit rate mode : Variable
Bit rate : 743 kb/s
Channel(s) : 1 channel
Channel layout : C
Sampling rate : 48.0 kHz
Frame rate : 11.719 FPS (4096 SPF)
Bit depth : 24 bits
Compression mode : Lossless
Stream size : 714 MiB (4%)
Title : English
Writing library : libFLAC 1.2.1 (UTC 2007-09-17)
Language : English
Default : No
Forced : No

Text #1
ID : 4
Format : UTF-8
Codec ID : S_TEXT/UTF8
Codec ID/Info : UTF-8 Plain Text
Duration : 2 h 10 min
Bit rate : 25 b/s
Count of elements : 683
Stream size : 24.1 KiB (0%)
Title : English
Language : English
Default : Yes
Forced : Yes

Text #2
ID : 5
Format : PGS
Muxing mode : zlib
Codec ID : S_HDMV/PGS
Codec ID/Info : Picture based subtitle format used on BDs/HD-DVDs
Duration : 2 h 10 min
Bit rate : 4 160 b/s
Count of elements : 1366
Stream size : 3.88 MiB (0%)
Title : English
Language : English
Default : No
Forced : No

Text #3
ID : 6
Format : UTF-8
Codec ID : S_TEXT/UTF8
Codec ID/Info : UTF-8 Plain Text
Duration : 1 h 51 min
Bit rate : 0 b/s
Count of elements : 13
Stream size : 187 Bytes (0%)
Title : English forced
Language : English
Default : No
Forced : No

Text #4
ID : 7
Format : PGS
Muxing mode : zlib
Codec ID : S_HDMV/PGS
Codec ID/Info : Picture based subtitle format used on BDs/HD-DVDs
Duration : 1 h 51 min
Bit rate : 56 b/s
Count of elements : 26
Stream size : 46.6 KiB (0%)
Title : English forced
Language : English
Default : No
Forced : No

Text #5
ID : 8
Format : UTF-8
Codec ID : S_TEXT/UTF8
Codec ID/Info : UTF-8 Plain Text
Duration : 2 h 13 min
Bit rate : 27 b/s
Count of elements : 924
Stream size : 27.1 KiB (0%)
Title : English dubtitles
Language : English
Default : No
Forced : No

Text #6
ID : 9
Format : UTF-8
Codec ID : S_TEXT/UTF8
Codec ID/Info : UTF-8 Plain Text
Duration : 2 h 14 min
Bit rate : 31 b/s
Count of elements : 1169
Stream size : 31.1 KiB (0%)
Title : English dubtitles SDH
Language : English
Default : No
Forced : No

Text #7
ID : 10
Format : PGS
Muxing mode : zlib
Codec ID : S_HDMV/PGS
Codec ID/Info : Picture based subtitle format used on BDs/HD-DVDs
Duration : 2 h 14 min
Bit rate : 5 901 b/s
Count of elements : 2338
Stream size : 5.66 MiB (0%)
Title : English dubtitles SDH
Language : English
Default : No
Forced : No

Menu
00:00:00.000 : en:00:00:00.000
00:10:28.587 : en:00:10:28.587
00:25:02.377 : en:00:25:02.377
00:33:31.302 : en:00:33:31.302
00:43:53.590 : en:00:43:53.590
00:55:23.071 : en:00:55:23.071
01:06:04.461 : en:01:06:04.461
01:17:47.956 : en:01:17:47.956
01:29:33.160 : en:01:29:33.160
01:40:24.102 : en:01:40:24.102
01:52:07.931 : en:01:52:07.931
02:03:15.472 : en:02:03:15.472





1 个附件 售价 大小 下载 时间

The.Boxer.from.Shantung.1972.REMASTERED.1080p.BluRay.x264-USURY.torrent 0 金币 22.32K 1295 次 3月前

#1楼
发帖时间:2022-01-28 08:26:59   |   回复数:1
zjdiablo
江湖小虾
经典啊!感谢分享!
3月前 #2楼
游客组