topgood
武林盟主

[更 早] [其它] [剧情] [BD-4K] 钢琴课 The.Piano.1993.2160p.BluRay.x264.8bit.SDR.DTS-HD.MA.5.1-SWTYBLZ 58.83GB

-->

帖子完整标题:钢琴课 The.Piano.1993.2160p.BluRay.x264.8bit.SDR.DTS-HD.MA.5.1-SWTYBLZ 58.83GB



◎译  名 钢琴课 / 钢琴别恋(港) / 钢琴师和她的情人(台) / 奇情孽恋 / Piano
◎片  名 The Piano
◎年  代 1993
◎产  地 新西兰 / 澳大利亚 / 法国
◎类  别 剧情 / 爱情 / 音乐
◎语  言 英语 / 英国手语 / 毛利语
◎上映日期 1993-05-17(戛纳电影节) / 1993-05-19(法国) / 1993-08-05(澳大利亚)
◎IMDb链接 https://www.imdb.com/title/tt0107822/
◎豆瓣评分 8.1/10 (83782人评价)
◎豆瓣链接 https://movie.douban.com/subject/1293818/
◎片  长 121分钟
◎导  演 简·坎皮恩 Jane Campion (id:1045008)
◎编  剧 简·坎皮恩 Jane Campion (id:1045008)
◎演  员 霍利·亨特 Holly Hunter (id:1031838)
      哈威·凯特尔 Harvey Keitel (id:1048131)
      山姆·尼尔 Sam Neill (id:1049525)
      安娜·帕奎因 Anna Paquin (id:1012515)
      克利夫·柯蒂斯 Cliff Curtis (id:1022578)
      克里·沃克 Kerry Walker (id:1166989)
      吉娜维夫·莱蒙 Geneviève Lemon (id:1289782)
      伊恩·穆内 Ian Mune (id:1292702)
      佩特·史密斯 Pete Smith (id:1297921)
      布鲁克·奥佩斯 Bruce Allpress (id:1056629)
      罗丝·麦克莱弗 Rose McIver (id:1027253)
      迈克尔·尼曼 Michael Nyman (id:1000684)
      斯蒂芬·帕普斯 Stephen Papps (id:1293921)
      Guy Moana Guy Moana (id:1292266)
      Jon Brazier Jon Brazier (id:1279225)
      户田惠子 Keiko Toda (id:1051741)
      斯图尔特·瑞伯 Stuart Dryburgh (id:1002952)
      维罗妮卡·詹尼特 Veronika Jenet (id:1285772)
      安德鲁·麦克阿尔平 Andrew McAlpine (id:1291406)
      珍妮特·帕特森 Janet Patterson (id:1294093)
      渡边纪子 Noriko Watanabe (id:1300483)
      Bob McCarron Bob McCarron (id:1291448)
      凯瑟琳·詹姆斯 Katherine James (id:1287575)
      Colin Englert Colin Englert (id:1283213)

◎简  介
  苏格兰单身母亲艾达·麦格拉斯(霍利·亨特 饰)自六岁起就放弃了讲话,只通过钢琴倾诉满腔情感。1852年,麦格拉斯远嫁新西兰的斯图尔特(山姆·尼尔 饰),将钢琴也一并带了去。可是斯图尔特人手不够,只得将笨重的钢琴遗弃海滩。斯图尔特之友乔治·贝恩斯(哈维·凯特尔 饰)爱上了麦格拉斯,用八十英亩土地与斯图尔特交易。斯图尔特转让了钢琴,并命麦格拉斯教贝恩斯奏琴。钢琴课上,贝恩斯提议,如果麦格拉斯在教琴的时候允许某些出格的事情发生,一次课便可换回一个琴键……

◎获奖情况 (共28项)
  第66届奥斯卡金像奖 (1994)
  最佳影片(提名)
   └──简·查普曼 (id:1001256)
  最佳导演(提名)
   └──简·坎皮恩 (id:1045008)
  最佳女主角
   └──霍利·亨特 (id:1031838)
  最佳女配角
   └──安娜·帕奎因 (id:1012515)
  最佳原创剧本
   └──简·坎皮恩 (id:1045008)
  最佳摄影(提名)
   └──斯图尔特·瑞伯 (id:1002952)
  最佳剪辑(提名)
   └──维罗妮卡·詹尼特 (id:1285772)
  最佳服装设计(提名)
   └──珍妮特·帕特森 (id:1294093)

  第46届戛纳电影节 (1993)
  主竞赛单元 金棕榈奖
   └──简·坎皮恩 (id:1045008)
  主竞赛单元 最佳女演员
   └──霍利·亨特 (id:1031838)

  第51届金球奖 (1994)
  电影类 最佳剧情片(提名)
  电影类 最佳导演(提名)
   └──简·坎皮恩 (id:1045008)
  电影类 剧情片最佳女主角
   └──霍利·亨特 (id:1031838)
  电影类 最佳女配角(提名)
   └──安娜·帕奎因 (id:1012515)
  电影类 最佳编剧(提名)
   └──简·坎皮恩 (id:1045008)
  电影类 最佳原创配乐(提名)
   └──迈克尔·尼曼 (id:1000684)

  第47届英国电影学院奖 (1994)
  电影奖 最佳影片(提名)
  电影奖 最佳导演(提名)
   └──简·坎皮恩 (id:1045008)
  电影奖 最佳女主角
   └──霍利·亨特 (id:1031838)
  电影奖 最佳原创剧本(提名)
   └──简·坎皮恩 (id:1045008)
  电影奖 最佳摄影(提名)
   └──斯图尔特·瑞伯 (id:1002952)
  电影奖 最佳剪辑(提名)
   └──维罗妮卡·詹尼特 (id:1285772)
  电影奖 最佳服装设计
   └──珍妮特·帕特森 (id:1294093)
  电影奖 最佳艺术指导
   └──安德鲁·麦克阿尔平 (id:1291406)
  电影奖 最佳原创音乐(提名)
   └──迈克尔·尼曼 (id:1000684)
  电影奖 最佳音效(提名)

  第18届日本电影学院奖 (1995)
  最佳外语片(提名)

  第19届法国凯撒电影奖 (1994)
  最佳外语片

Video
ID : 1
Format : AVC
Format/Info : Advanced Video Codec
Format profile : [email protected]
Format settings : CABAC / 5 Ref Frames
Format settings, CABAC : Yes
Format settings, Reference frames : 5 frames
Codec ID : V_MPEG4/ISO/AVC
Duration : 2 h 0 min
Bit rate : 65.9 Mb/s
Width : 3 840 pixels
Height : 2 076 pixels
Display aspect ratio : 1.85:1
Frame rate mode : Constant
Frame rate : 23.976 (24000/1001/189150) FPS
Color space : YUV
Chroma subsampling : 4:2:0
Bit depth : 8 bits
Scan type : Progressive
Bits/(Pixel*Frame) : 0.345
Stream size : 55.6 GiB (95%)
Writing library : x264 core 157 r2935 545de2f
Encoding settings : cabac=1 / ref=5 / deblock=1:-1:-1 / analyse=0x3:0x113 / me=umh / subme=10 / psy=1 / psy_rd=1.00:0.15 / mixed_ref=1 / me_range=48 / chroma_me=1 / trellis=2 / 8x8dct=1 / cqm=0 / deadzone=21,11 / fast_pskip=1 / chroma_qp_offset=-3 / threads=48 / lookahead_threads=4 / sliced_threads=0 / nr=0 / decimate=0 / interlaced=0 / bluray_compat=0 / constrained_intra=0 / bframes=3 / b_pyramid=2 / b_adapt=2 / b_bias=0 / direct=3 / weightb=1 / open_gop=0 / weightp=2 / keyint=250 / keyint_min=23 / scenecut=40 / intra_refresh=0 / rc_lookahead=50 / rc=crf / mbtree=1 / crf=18.0 / qcomp=0.60 / qpmin=0 / qpmax=69 / qpstep=4 / ip_ratio=1.40 / aq=1:1.00
Default : Yes
Forced : No

Audio #1
ID : 2
ID in the original source medium : 4352 (0x1100)
Format : DTS XLL
Format/Info : Digital Theater Systems
Commercial name : DTS-HD Master Audio
Codec ID : A_DTS
Duration : 2 h 0 min
Bit rate mode : Variable
Bit rate : 2 887 kb/s
Channel(s) : 6 channels
Channel layout : C L R Ls Rs LFE
Sampling rate : 48.0 kHz
Frame rate : 93.750 FPS (512 SPF)
Bit depth : 24 bits
Compression mode : Lossless
Stream size : 2.44 GiB (4%)
Title : DTS-HD MA 5.1
Language : English
Default : Yes
Forced : No
Original source medium : Blu-ray

Audio #2
ID : 3
Format : AC-3
Format/Info : Audio Coding 3
Commercial name : Dolby Digital
Codec ID : A_AC3
Duration : 2 h 0 min
Bit rate mode : Constant
Bit rate : 640 kb/s
Channel(s) : 6 channels
Channel layout : L R C LFE Ls Rs
Sampling rate : 48.0 kHz
Frame rate : 31.250 FPS (1536 SPF)
Compression mode : Lossy
Stream size : 553 MiB (1%)
Title : DD 5.1
Language : English
Service kind : Complete Main
Default : No
Forced : No

Text #1
ID : 4
Format : UTF-8
Codec ID : S_TEXT/UTF8
Codec ID/Info : UTF-8 Plain Text
Duration : 1 h 42 min
Bit rate : 2 b/s
Count of elements : 53
Stream size : 1.67 KiB (0%)
Title : FORCED
Language : English
Default : No
Forced : Yes

Text #2
ID : 5
Format : UTF-8
Codec ID : S_TEXT/UTF8
Codec ID/Info : UTF-8 Plain Text
Duration : 1 h 54 min
Bit rate : 27 b/s
Count of elements : 799
Stream size : 23.4 KiB (0%)
Language : English
Default : Yes
Forced : No

Text #3
ID : 6
Format : UTF-8
Codec ID : S_TEXT/UTF8
Codec ID/Info : UTF-8 Plain Text
Duration : 1 h 54 min
Bit rate : 33 b/s
Count of elements : 957
Stream size : 27.9 KiB (0%)
Title : SDH
Language : English
Default : No
Forced : No

Text #4
ID : 7
ID in the original source medium : 4768 (0x12A0)
Format : PGS
Muxing mode : zlib
Codec ID : S_HDMV/PGS
Codec ID/Info : Picture based subtitle format used on BDs/HD-DVDs
Duration : 1 h 42 min
Bit rate : 1 929 b/s
Count of elements : 112
Stream size : 1.41 MiB (0%)
Language : English
Default : No
Forced : No
Original source medium : Blu-ray

Text #5
ID : 8
ID in the original source medium : 4769 (0x12A1)
Format : PGS
Muxing mode : zlib
Codec ID : S_HDMV/PGS
Codec ID/Info : Picture based subtitle format used on BDs/HD-DVDs
Duration : 1 h 54 min
Bit rate : 28.9 kb/s
Count of elements : 1970
Stream size : 23.8 MiB (0%)
Language : English
Default : No
Forced : No
Original source medium : Blu-ray

Menu
00:00:00.000 : en:Chapter 01
00:04:02.617 : en:Chapter 02
00:09:10.967 : en:Chapter 03
00:16:30.572 : en:Chapter 04
00:21:44.761 : en:Chapter 05
00:31:32.473 : en:Chapter 06
00:37:54.397 : en:Chapter 07
00:44:53.607 : en:Chapter 08
00:55:03.800 : en:Chapter 09
01:00:22.035 : en:Chapter 10
01:09:14.400 : en:Chapter 11
01:21:40.186 : en:Chapter 12
01:31:12.216 : en:Chapter 13
01:40:55.382 : en:Chapter 14
01:47:02.707 : en:Chapter 15
01:54:05.755 : en:Chapter 16
01:56:31.234 : en:Chapter 17





1 个附件 售价 大小 下载 时间

The.Piano.1993.2160p.BluRay.x264.8bit.SDR.DTS-HD.MA.5.1-SWTYBLZ.torrent 0 金币 74.23K 371 次 3月前

#1楼
发帖时间:2022-01-28 09:15:01   |   回复数:0
游客组