squallzhao
一代宗师

[更 早] [其它] [喜剧] [4K-原盘] 美国狼人在巴黎 An.American.Werewolf.in.Paris.1997.2160p.BluRay.REMUX.HEVC.DTS-HD.MA.5.1

-->

帖子完整标题:美国狼人在巴黎 An.American.Werewolf.in.Paris.1997.2160p.BluRay.REMUX.HEVC.DTS-HD.MA.5.1-FGT 53.89GB



◎译  名 美国狼人在巴黎 / An American Werewolf in Paris
◎片  名 An American Werewolf in Paris
◎年  代 1997
◎产  地 英国 / 荷兰 / 卢森堡 / 美国 / 法国
◎类  别 喜剧 / 爱情 / 惊悚 / 恐怖
◎语  言 英语 / 法语
◎上映日期 1997-10-31(英国)
◎IMDb链接 https://www.imdb.com/title/tt0118604/
◎豆瓣评分 6.5/10 (212人评价)
◎豆瓣链接 https://movie.douban.com/subject/1294359/
◎片  长 105 分钟
◎导  演 安东尼·威勒 Anthony Waller (id:1041743)
◎编  剧 安东尼·威勒 Anthony Waller (id:1041743)
      约翰·兰迪斯 John Landis (id:1025259)
      Tim Burns Tim Burns (id:1029536)
      Tim Burns Tim Burns (id:1279692)
      汤姆·丝特恩 Tom Stern (id:1298403)
◎演  员 艾伦·麦肯纳 Alan McKenna (id:1342197)
      玛丽亚·马卡多 Maria Machado (id:1290635)
      朱莉·德尔佩 Julie Delpy (id:1036420)
      Maria Schicker Maria Schicker (id:1296875)
      Katja Reinert-Alexis Katja Reinert-Alexis (id:1295428)
      布鲁斯·沃尔特斯 Bruce Walters (id:1300370)
      彼得·特拉弗斯 Peter G. Travers (id:1299485)
      詹姆斯·斯特劳斯 James Straus (id:1298547)
      格雷格·金布尔 Greg Kimble (id:1288555)
      Scott Gordon Scott Gordon (id:1285195)

◎简  介
  三个美国青年组成“旅欧探险队”来到艺术之都巴黎。到达当晚他们就开始按计划冒险:在艾菲尔塔上来一个蹦极跳。就在准备就绪马上要开跳时,三人中的安迪突然看到一个女孩从他不远处跳下去。当他意识到她是在寻短见时,毫不犹豫跳下去,凌空救起了那个女孩 。不幸的是,他的头也撞在铁板上,失去了知觉。安迪在医院中醒来,尽管同伴还在笑他没女人缘,但他发现自己已对那女孩有了情思一束。仅凭那女孩在现场掉落的一张纸条,他们开始寻找。又有谁知道,在这月圆之夜,一件又一件可怕的事情就要降临到他们头上。

Video
ID : 1
ID in the original source medium : 4113 (0x1011)
Format : HEVC
Format/Info : High Efficiency Video Coding
Format profile : Main [email protected]@High
HDR format : Dolby Vision, Version 1.0, dvhe.07.06, BL+EL+RPU, Blu-ray compatible / SMPTE ST 2086, HDR10 compatible
Codec ID : V_MPEGH/ISO/HEVC
Duration : 1 h 37 min
Bit rate : 69.6 Mb/s
Width : 3 840 pixels
Height : 2 160 pixels
Display aspect ratio : 16:9
Frame rate mode : Constant
Frame rate : 23.976 (24000/1001/189150) FPS
Color space : YUV
Chroma subsampling : 4:2:0 (Type 2)
Bit depth : 10 bits
Bits/(Pixel*Frame) : 0.350
Stream size : 47.6 GiB (88%)
Language : English
Default : No
Forced : No
Color range : Limited
Color primaries : BT.2020
Transfer characteristics : PQ
Matrix coefficients : BT.2020 non-constant
Mastering display color primaries : BT.2020
Mastering display luminance : min: 0.0001 cd/m2, max: 1000 cd/m2
Maximum Content Light Level : 1000 cd/m2
Maximum Frame-Average Light Level : 400 cd/m2
Original source medium : Blu-ray

Audio #1
ID : 2
ID in the original source medium : 4354 (0x1102)
Format : DTS XLL
Format/Info : Digital Theater Systems
Commercial name : DTS-HD Master Audio
Codec ID : A_DTS
Duration : 1 h 37 min
Bit rate mode : Variable
Bit rate : 2 526 kb/s
Channel(s) : 6 channels
Channel layout : C L R Ls Rs LFE
Sampling rate : 48.0 kHz
Frame rate : 93.750 FPS (512 SPF)
Bit depth : 16 bits
Compression mode : Lossless
Stream size : 1.73 GiB (3%)
Title : DTS-HD MA 5.1
Language : English
Default : Yes
Forced : No
Original source medium : Blu-ray

Audio #2
ID : 3
Format : AC-3
Format/Info : Audio Coding 3
Commercial name : Dolby Digital
Codec ID : A_AC3
Duration : 1 h 37 min
Bit rate mode : Constant
Bit rate : 640 kb/s
Channel(s) : 6 channels
Channel layout : L R C LFE Ls Rs
Sampling rate : 48.0 kHz
Frame rate : 31.250 FPS (1536 SPF)
Compression mode : Lossy
Stream size : 448 MiB (1%)
Title : DD 5.1
Language : English
Service kind : Complete Main
Default : No
Forced : No

Audio #3
ID : 4
ID in the original source medium : 4352 (0x1100)
Format : DTS XLL
Format/Info : Digital Theater Systems
Commercial name : DTS-HD Master Audio
Codec ID : A_DTS
Duration : 1 h 37 min
Bit rate mode : Variable
Bit rate : 2 490 kb/s
Channel(s) : 6 channels
Channel layout : C L R Ls Rs LFE
Sampling rate : 48.0 kHz
Frame rate : 93.750 FPS (512 SPF)
Bit depth : 16 bits
Compression mode : Lossless
Stream size : 1.70 GiB (3%)
Title : DTS-HD MA 5.1
Language : German
Default : No
Forced : No
Original source medium : Blu-ray

Audio #4
ID : 5
ID in the original source medium : 4353 (0x1101)
Format : DTS XLL
Format/Info : Digital Theater Systems
Commercial name : DTS-HD Master Audio
Codec ID : A_DTS
Duration : 1 h 37 min
Bit rate mode : Variable
Bit rate : 1 739 kb/s
Channel(s) : 2 channels
Channel layout : L R
Sampling rate : 48.0 kHz
Frame rate : 93.750 FPS (512 SPF)
Bit depth : 16 bits
Compression mode : Lossless
Stream size : 1.19 GiB (2%)
Title : DTS-HD MA 2.0
Language : German
Default : No
Forced : No
Original source medium : Blu-ray

Audio #5
ID : 6
ID in the original source medium : 4355 (0x1103)
Format : DTS XLL
Format/Info : Digital Theater Systems
Commercial name : DTS-HD Master Audio
Codec ID : A_DTS
Duration : 1 h 37 min
Bit rate mode : Variable
Bit rate : 1 759 kb/s
Channel(s) : 2 channels
Channel layout : L R
Sampling rate : 48.0 kHz
Frame rate : 93.750 FPS (512 SPF)
Bit depth : 16 bits
Compression mode : Lossless
Stream size : 1.20 GiB (2%)
Title : DTS-HD MA 2.0
Language : English
Default : No
Forced : No
Original source medium : Blu-ray

Text #1
ID : 7
Format : UTF-8
Codec ID : S_TEXT/UTF8
Codec ID/Info : UTF-8 Plain Text
Duration : 1 h 29 min
Bit rate : 35 b/s
Count of elements : 769
Stream size : 23.6 KiB (0%)
Language : English
Default : Yes
Forced : No

Text #2
ID : 8
ID in the original source medium : 4768 (0x12A0)
Format : PGS
Muxing mode : zlib
Codec ID : S_HDMV/PGS
Codec ID/Info : Picture based subtitle format used on BDs/HD-DVDs
Duration : 1 h 35 min
Bit rate : 23.8 kb/s
Count of elements : 1570
Stream size : 16.3 MiB (0%)
Language : German
Default : No
Forced : No
Original source medium : Blu-ray

Text #3
ID : 9
ID in the original source medium : 4769 (0x12A1)
Format : PGS
Muxing mode : zlib
Codec ID : S_HDMV/PGS
Codec ID/Info : Picture based subtitle format used on BDs/HD-DVDs
Duration : 1 h 29 min
Bit rate : 21.0 kb/s
Count of elements : 1536
Stream size : 13.5 MiB (0%)
Language : English
Default : No
Forced : No
Original source medium : Blu-ray

Menu
00:00:00.000 : en:Chapter 01
00:03:27.207 : en:Chapter 02
00:11:38.698 : en:Chapter 03
00:17:49.068 : en:Chapter 04
00:23:48.427 : en:Chapter 05
00:28:55.734 : en:Chapter 06
00:37:57.275 : en:Chapter 07
00:44:37.675 : en:Chapter 08
00:52:25.142 : en:Chapter 09
01:01:10.667 : en:Chapter 10
01:10:03.199 : en:Chapter 11
01:14:58.494 : en:Chapter 12
01:18:42.718 : en:Chapter 13
01:23:44.019 : en:Chapter 14
01:31:09.464 : en:Chapter 15
01:32:41.556 : en:Chapter 16





1 个附件 售价 大小 下载 时间

An.American.Werewolf.in.Paris.1997.2160p.BluRay.REMUX.HEVC.DTS-HD.MA.5.1-FGT.torrent 0 金币 68.05K 490 次 3月前

#1楼
发帖时间:2022-01-28 14:12:01   |   回复数:0
游客组